프리미어 프로 관련 질문 입니다.
 씨네
 조회 : 538 , 2017/03/21 02:34

안녕하세요~^^

 

프리미어 프로에서 영상을 불러오면 오디오는 출력이 안되는데요, 프리미어에서 지원을 안하면 편집이 불가능한건가요?

혹시 지원하는 소프트웨어는 어떤것들이 있는지 알고싶습니다.

 

아래는 파일정보입니다.

 

General
Complete name                  : D:/normal.mp4
Format                         : MPEG-4
Format profile                 : Base Media
Codec ID                       : isom (isom/iso2/mp41)
File size                      : 160 MiB
Duration                       : 2 min 0 s
Overall bit rate               : 11.2 Mb/s

Video
ID                             : 1
Format                         : AVC
Format/Info                    : Advanced Video Codec
Format profile                 : High@L4.1
Format settings, CABAC         : Yes
Format settings, ReFrames      : 1 frame
Format settings, GOP           : M=1, N=20
Codec ID                       : avc1
Codec ID/Info                  : Advanced Video Coding
Duration                       : 2 min 0 s
Source duration                : 1 min 59 s
Bit rate                       : 10.6 Mb/s
Width                          : 1 920 pixels
Height                         : 1 080 pixels
Original height                : 1 088 pixels
Display aspect ratio           : 16:9
Frame rate                     : 30.071 FPS
Color space                    : YUV
Chroma subsampling             : 4:2:0
Bit depth                      : 8 bits
Scan type                      : Progressive
Bits/(Pixel*Frame)             : 0.170
Stream size                    : 151 MiB (95%)
Source stream size             : 151 MiB (95%)
Language                       : English
mdhd_Duration                  : 120016

Audio
ID                             : 2
Format                         : PCM
Format settings, Endianness    : Little
Format settings, Sign          : Signed
Codec ID                       : sowt
Duration                       : 2 min 0 s
Source duration                : 2 min 0 s
Bit rate mode                  : Constant
Bit rate                       : 352.8 kb/s
Channel(s)                     : 1 channel
Sampling rate                  : 22.05 kHz
Bit depth                      : 16 bits
Stream size                    : 5.05 MiB (3%)
Source stream size             : 5.05 MiB (3%)
Language                       : English
mdhd_Duration                  : 120016

 

 

122.32.100.xxx
불법 광고글 신고하기
   이 게시물의 댓글 보기
  감자나무 감자나무님의 미디어로그 가기  / 17-03-21 11:01/ 이댓글에댓글달기
  다음팟인코더등에서 다른코덱으로 변환하신후에 불러들이시는게 제일 좋은것 같은데요

근데 PCM이라서 프리미어에서 못불러올리가 없을텐데...
로그인 | 이 페이지의 PC버전
Copyright NexGen Research Corp. 2010